#TITLE:Beyond the Earth;
#SUBTITLE:;
#ARTIST:NEKOMATA MASTER;
#TITLETRANSLIT:;
#SUBTITLETRANSLIT:;
#ARTISTTRANSLIT:;
#CREDIT:;
#BANNER:Beyond the Earth.png;
#BACKGROUND:Beyond the Earth-bg.png;
#LYRICSPATH:;
#CDTITLE:!toph-cdtitle.png;
#MUSIC:Nekomata Master - Beyond the Earth.mp3;
#OFFSET:-1.479;
#SAMPLESTART:57.600;
#SAMPLELENGTH:14.140;
#SELECTABLE:YES;
#BPMS:0.000=140.000;
#STOPS:;
#BGCHANGES:;
// cache tags:
#FIRSTBEAT:0.000;
#LASTBEAT:307.000;
#SONGFILENAME:Songs/Music V.I.P ^_^/Beyond the Earth/Beyond the Earth.sm;
#HASMUSIC:1;
#HASBANNER:1;
#MUSICLENGTH:134.692;
// end cache tags

//---------------dance-single - ----------------
#NOTES:
     dance-single:
     :
     Hard:
     12:
     1.000,1.000,1.000,0.000,1.000,943.000,337.000,0.000,0.000,0.000:
0010
0000
0000
0000
0000
0000
0000
0000
0000
0000
0000
0000
0000
0000
0000
0000
0000
0000
0000
0000
0000
0000
0000
0000
0000
0000
0000
0000
0000
0000
1000
0000
0100
0000
0010
0000
0001
0000
0000
0100
0000
0000
1010
0000
0000
0100
0000
0000
,
1001
0000
0000
0000
0000
0000
0010
0000
0000
0000
0000
0000
0001
0000
0010
0000
0100
0000
1001
0000
0000
0000
0000
0000
0011
0000
0000
0000
0000
0000
0100
0000
0000
0010
0000
0000
1000
0000
0000
0000
0000
0000
0101
0000
0000
0000
0000
0000
,
1010
0000
0000
0000
0000
0000
0001
0000
0000
1000
0000
0000
0011
0000
0000
0100
0000
0000
1001
0000
0000
0000
0000
0000
0110
0000
0000
0000
0000
0000
1001
0000
0010
0000
0100
0000
1000
0000
0000
0001
0000
0000
0100
0000
0000
0000
0000
0000
,
1010
0000
0000
1000
0001
0010
0100
0000
0000
1001
0000
0000
0110
0000
0000
0010
0001
0010
0100
0000
0000
1001
0000
0000
,
0110
0000
0000
0110
1000
0000
0110
0000
1001
0000
0010
0100
0011
0000
1100
0000
,
1001
0000
0000
0000
0000
0000
0010
0000
0000
0000
0000
0000
0001
0000
0010
0000
0100
0000
1001
0000
0000
0000
0000
0000
0011
0000
0000
0000
0000
0000
0100
0000
0000
0010
0000
0000
1000
0000
0000
0000
0000
0000
0101
0000
0000
0000
0000
0000
,
1010
0000
0000
0000
0000
0000
0001
0000
0000
1000
0000
0000
0011
0000
0000
0100
0000
0000
1001
0000
0000
0000
0000
0000
0110
0000
0000
0000
0000
0000
1001
0000
0010
0000
0100
0000
1000
0000
0000
0001
0000
0000
0100
0000
0000
0000
0000
0000
,
1010
0000
0000
0000
0000
0000
0001
0000
0000
0000
0000
0000
1000
0000
0000
0000
0000
0000
0001
0000
0010
0000
0100
0000
1001
0000
0000
0000
0000
0000
0100
0000
0010
0000
0100
0000
0011
0000
0000
0000
0000
0000
0100
0000
0000
0010
0000
0000
,
1001
0000
0000
1001
0000
0000
1001
0000
0000
0000
0001
0000
1100
0000
0010
0000
,
1001
0000
0000
0000
0000
0000
0010
0000
0000
0000
0000
0000
1000
0000
0001
0000
0010
0000
1100
0000
0000
0000
0000
0000
0011
0000
0000
0000
0000
0000
1000
0000
0000
0001
0000
0000
0010
0000
0000
0000
0000
0000
1100
0000
0000
0000
0000
0000
,
0011
0000
0000
0000
0000
0000
0100
0000
0000
1000
0000
0000
0011
0000
0000
0100
0000
0000
1010
0000
0000
0000
0000
0000
0101
0000
0000
0000
0000
0000
1001
0000
0100
0000
0010
0000
0001
0000
0000
1000
0000
0000
0100
0000
0000
0000
0000
0000
,
1010
0000
0000
1000
0001
0010
0100
0000
0000
1010
0000
0000
0101
0000
0000
0010
0001
0010
0100
0000
0000
1001
0000
0000
,
0110
0000
0000
0110
0001
0000
0110
0000
1001
0000
0010
1000
0011
0000
1100
0000
,
1001
0000
0000
0000
0000
0000
0010
0000
0000
0000
0000
0000
1000
0000
0001
0000
0010
0000
1100
0000
0000
0000
0000
0000
0011
0000
0000
0000
0000
0000
1000
0000
0000
0001
0000
0000
0010
0000
0000
0000
0000
0000
1100
0000
0000
0000
0000
0000
,
0011
0000
0000
0000
0000
0000
0100
0000
0000
1000
0000
0000
0011
0000
0000
0100
0000
0000
1010
0000
0000
0000
0000
0000
0101
0000
0000
0000
0000
0000
1001
0000
0100
0000
0010
0000
0001
0000
0000
0100
0000
0000
0010
0000
0000
0000
0000
0000
,
1001
0000
0000
0100
0000
0000
0010
0000
0000
0001
0010
0100
1001
0000
0000
1000
0010
1000
0011
0000
0000
1100
0000
0000
,
1001
0000
0000
0000
0000
0000
0000
0000
0000
1001
0000
0000
0000
0000
0000
0000
0000
0000
1001
0000
0000
0000
0000
0000
0000
0000
0000
0000
0000
0000
1000
0000
0100
0000
0010
0000
1001
0000
0000
0000
0000
0000
0000
0000
0000
0000
0000
0000
,
0110
0000
0001
0010
1100
0000
0011
0000
1000
0000
0101
0000
1010
0001
0100
0000
,
1001
0000
0010
1000
0101
0000
1010
0000
0001
0000
1100
0000
0011
0001
0100
0000
,
1010
0000
0001
1000
0101
0000
1010
0000
0001
0000
1100
0000
0011
1000
0100
0000
,
1010
0000
0001
0100
1010
0000
0101
0000
1000
0000
0110
0000
1001
1000
0100
0000
,
0011
0000
1000
0001
1100
0000
0011
0000
0100
0000
1010
0000
0101
1000
0010
0000
,
1100
0000
0001
1000
0110
0000
1001
0000
0100
0000
1001
0000
0110
0010
0001
0000
,
1100
0000
0010
0100
0011
0000
1100
0000
0001
0000
0110
0000
1001
0100
0010
0000
,
1100
0000
0010
0100
1001
0000
0110
0000
0001
0000
1100
0000
0011
0001
0010
0100
,
1001
0000
0001
0010
0100
0000
1001
0100
0011
0000
0100
0000
0010
1000
0110
0001
,
1100
0000
0010
1000
0001
0000
1100
0001
1010
0000
0110
0000
1001
0001
0100
0010
,
1001
0000
0010
1000
0100
0000
0011
1000
0101
0000
1000
0000
0100
0010
1001
0100
,
1010
0000
0001
0100
0010
0000
1001
0000
0100
0000
0011
0000
1100
1000
0100
0010
,
1001
0000
0010
0100
0001
0000
1100
0001
0110
0000
1000
0000
0001
0100
0011
1000
,
0110
0000
0001
1000
0010
0000
1001
0100
1010
0000
0101
0000
0011
0001
0100
0010
,
1100
0000
0010
0100
0001
0000
1010
0000
0100
0000
0011
0000
1000
0100
1010
0001
,
0110
0000
0000
1000
0000
0000
0000
0000
0000
0001
0000
0000
0010
0000
0000
0100
0000
0000
1000
0000
0001
0000
0100
0000
0010
0000
0000
1000
0000
0000
0000
0000
0000
0001
0000
0000
0110
0000
0000
1000
0000
0000
0011
0000
0000
0100
0000
0000
,
1001
0000
0000
0000
0000
0000
1000
0000
0000
0100
0000
0000
0011
0000
1000
0000
0001
0000
0100
0000
0000
0000
0000
0000
1001
0000
0000
0000
0000
0000
0010
0000
0000
0000
0000
0000
1100
0000
0000
0000
0000
0000
0011
0000
0000
0000
0000
0000
,
1001
0000
0000
0000
0000
0000
0010
0000
0000
0100
0000
0000
0011
0000
0000
0000
0000
0000
1100
0000
0000
0000
0000
0000
0101
0000
0000
0000
0000
0000
1001
0000
0010
0000
0100
0000
1001
0000
0000
0000
0000
0000
0101
0000
0000
0000
0000
0000
,
0110
0000
0000
0010
0001
0010
1100
0000
0000
0011
0000
0000
1100
0000
0000
0100
0010
0100
1001
0000
0000
1100
0000
0000
,
0011
0000
0100
0011
1000
0000
0011
0100
1001
0000
0101
0000
0110
0000
1010
0000
,
1100
0000
0000
0000
0000
0000
0010
0000
0000
0100
0000
0000
1001
0000
0010
0000
0100
0000
0001
0000
0000
0000
0000
0000
1100
0000
0000
0000
0000
0000
0010
0000
0000
0100
0000
0000
1001
0000
0000
0010
0000
0000
0101
0000
0000
0000
0000
0000
,
1010
0000
0000
0000
0000
0000
0100
0000
0000
1000
0000
0000
0011
0000
0000
0000
0000
0000
0101
0000
0000
0000
0000
0000
1100
0000
0000
0000
0000
0000
1001
0000
0010
0000
0100
0000
1001
0000
0000
0000
0000
0000
0101
0000
0000
0000
0000
0000
,
1010
0000
0000
0000
0000
0000
0001
0000
0000
0010
0000
0000
0101
0000
0000
0000
0000
0000
1100
0000
0001
0000
1000
0000
0011
0000
0000
0000
0000
0000
0100
0000
0010
0000
0100
0000
1001
0000
0000
0000
0000
0000
0010
0000
0000
0100
0000
0000
,
1001
0000
0000
0000
0000
0000
0010
0000
0000
1001
0000
0000
0100
0000
0000
0000
0000
0000
1001
0000
0000
0000
0000
0000
0010
0000
0000
0000
0000
0000
0001
0000
0100
0000
0010
0000
1001
0000
0000
0100
0000
0000
0010
0000
0000
0001
0000
0000
,
1100
0010
0100
1001
0010
0100
1001
0010
0100
0001
1100
0010
0100
1001
0100
0010
,
0100
0001
0000
0110
1000
0000
0011
0000
0100
0000
1010
0100
0011
1000
0010
0100
,
1001
0000
0000
0010
0000
0000
1000
0000
0100
0000
0010
0000
0001
0000
0000
1000
0000
0000
0001
0000
0100
0000
0010
0000
1000
0000
0000
0001
0000
0000
1000
0000
0100
0000
0010
0000
0001
0000
1000
0000
0001
0000
1000
0000
0001
0000
1000
0000
,
0010
0000
0100
0000
0001
0000
1000
0000
0100
0000
0010
0000
0001
0000
1000
0000
0010
0000
0100
0000
0001
0000
0010
0000
0100
0000
1000
0000
0001
0000
1000
0000
0010
0000
0100
0000
0001
0000
0000
0010
0000
0000
0100
0000
0000
1000
0000
0000
,
0011
0000
1000
0000
0100
0000
0010
0000
0000
1001
0000
0000
0100
0000
0000
0010
0000
0000
0000
0000
0000
0010
0000
0000
1100
0000
0000
0001
0000
0000
0100
0000
0000
0011
0000
0000
1000
0000
0000
0000
0000
0000
1000
0000
0010
0000
0100
0000
,
1001
0000
0010
0000
0100
0000
1000
0000
0100
0000
0010
0000
0001
0000
0000
1000
0000
0000
0000
0000
0000
1000
0000
0000
0010
0000
0000
0100
0000
0000
0001
0000
0000
0100
0000
0000
0010
0000
0000
0100
0000
0000
0001
0000
0010
0000
0100
0000
,
1001
0000
0000
0000
0000
0000
0000
0000
0000
1001
0000
0000
0000
0000
0000
0000
0000
0000
1000
0000
0100
0000
0010
0000
1001
0000
0000
0000
0000
0000
0000
0000
0000
1001
0000
0000
0000
0000
0000
0000
0000
0000
0001
0000
0010
0000
0100
0000
,
1001
0000
0000
0000
1001
0000
0000
0000
1001
0000
0000
0000
1010
0000
0000
0000
0000
0000
1010
0000
0000
0001
0000
0000
1100
0000
0000
0000
0000
0000
0000
0000
0100
0000
0010
0000
1001
0000
0000
0000
0000
0000
0000
0000
0000
0000
0000
0000
,
0011
1000
0100
0010
0100
1000
0001
0100
0010
1000
0001
1000
0100
1000
0010
0100
,
0001
0010
0100
1000
0001
0100
0010
1000
0100
1000
0001
1000
0010
0100
0001
0010
,
0100
1000
0001
0100
0010
0100
0001
1000
0010
0100
0001
0010
0001
0100
0010
1000
,
0100
0010
0001
1000
0010
1000
0100
1000
0010
0100
0001
0100
0010
1000
0100
0010
,
1001
0100
0010
0001
0100
0010
1000
0010
0100
0001
0010
0001
0100
0010
1000
0100
,
1000
0010
0100
0001
0010
0001
1000
0010
0100
0010
0001
0010
0100
0001
0010
0001
,
1000
0010
0100
0010
1000
0100
0010
0001
0100
0010
0001
0010
0100
0010
0001
0010
,
1100
0000
0000
0000
0000
0000
0000
0000
1010
0000
0000
0101
0000
0000
0011
0100
,
1001
0000
0010
0100
0001
0000
1100
0010
1001
0000
0100
0000
0010
0001
1100
0010
,
1001
0000
0010
0001
0100
0000
1001
0100
0011
0000
0110
0000
1001
1000
0010
0100
,
1001
0000
0010
1000
0001
0000
1100
0010
0101
0000
1000
0000
0001
0100
1010
0001
,
1100
0000
0001
0100
0010
0000
1001
0000
0010
0000
1100
0000
0011
0001
0100
0010
,
1001
0000
0010
0100
1010
0000
0011
1000
0110
0000
0001
0000
0100
0010
1001
0100
,
0011
0000
1000
0001
0010
0000
1100
0001
1010
0000
0101
0000
0011
0001
1000
0010
,
1100
0000
0001
0100
0010
0000
1001
0000
0100
0000
0011
0000
1000
0100
1010
0001
,
0110
0000
0000
1000
0000
0000
0000
0000
0000
0001
0000
0000
0010
0000
0000
0100
0000
0000
1000
0000
0001
0000
0100
0000
0010
0000
0000
1000
0000
0000
0000
0000
0000
0001
0000
0000
0110
0000
0000
1000
0000
0000
0011
0000
0000
0100
0000
0000
,
1001
0000
0100
0011
1000
0000
0101
0010
1001
0000
0100
0001
1000
0100
0011
1000
,
0110
0000
0001
1100
0010
0000
1001
0100
0011
0000
0110
0001
1100
1000
0001
0110
,
1001
0000
0010
1100
0001
0000
1010
0001
1100
0000
0010
0000
0001
0100
1010
0001
,
1100
0000
0000
0000
0000
0000
0001
0000
0000
1100
0000
0000
0011
0000
0000
0000
0000
0000
1001
0000
0100
0000
0010
0000
1001
0000
0000
0100
0000
0000
1010
0000
0000
0101
0000
0000
1010
0000
0000
0001
0000
0000
1100
0000
0000
0010
0000
0000
,
1001
0000
0001
1100
0011
0000
1100
0010
1001
0000
0100
0001
1000
0100
0011
1000
,
0110
0000
0001
1100
0010
0000
1001
0100
0011
0000
0110
0001
1100
1000
0011
0100
,
1001
0000
0010
1100
0001
0000
1010
0000
0100
0000
1010
0000
0001
0100
0011
1000
,
0110
0001
1000
0110
1001
0000
1010
0001
0100
0010
1001
0100
1010
0010
0100
0000
,
1001
0000
0100
0011
1100
0000
0101
0000
1010
0000
0110
0001
1100
0010
0100
0000
,
1001
0000
0100
1010
0101
0000
1010
0000
1100
0000
0011
1000
0101
0001
1100
0010
,
1001
0000
0010
1001
0110
0000
0101
0000
1010
0000
0101
1010
0101
1000
0010
0000
,
1001
0000
0100
1010
0101
0000
1100
0010
0110
1001
0000
0000
1001
0000
0000
0000
;

//---------------dance-single - ----------------
#NOTES:
     dance-single:
     :
     Challenge:
     14:
     1.000,1.000,1.000,0.000,1.000,1021.000,480.000,0.000,0.000,44.000:
0010
0000
0000
0000
0000
0000
0000
0000
0000
0000
0000
0000
0000
0000
0000
0000
0000
0000
0000
0000
0000
0000
0000
0000
0000
0000
0000
0000
0000
0000
1000
0000
0100
0000
0010
0000
0001
0000
0000
0100
0000
0000
1010
0000
0000
0100
0000
0000
,
1001
0000
0000
0000
0000
0000
0010
0000
0000
0000
0000
0000
0001
0000
0010
0000
0100
0000
1001
0000
0000
0000
0000
0000
0011
0000
0000
0000
0000
0000
0100
0000
0000
0010
0000
0000
1000
0000
0000
0000
0000
0000
0101
0000
0000
0000
0000
0000
,
1010
0000
0000
0000
0000
0000
0001
0000
0000
1000
0000
0000
0011
0000
0000
0100
0000
0000
1001
0000
0000
0000
0000
0000
0110
0000
0000
0000
0000
0000
1001
0000
0010
0000
0100
0000
1000
0000
0000
0001
0000
0000
0100
0000
0000
0000
0000
0000
,
1010
0000
0000
0000
0000
0000
1000
0000
0001
0000
0010
0000
0100
0000
0000
0000
0000
0000
1001
0000
0000
0000
0000
0000
0110
0000
0000
0000
0000
0000
0010
0000
0001
1000
0010
0000
0100
0000
0000
0000
0000
0000
1001
0000
0000
0000
0000
0000
,
0110
0000
0000
0110
1000
0000
0110
0000
1001
0000
0010
0100
0011
0000
1100
0000
,
1001
0000
0000
0000
0000
0000
0010
0000
0000
0000
0000
0000
0001
0000
0010
0000
0100
0000
1001
0000
0000
0000
0000
0000
0011
0000
0000
0000
0000
0000
0100
0000
0000
0010
0000
0000
1000
0000
0000
0000
0000
0000
0101
0000
0000
0000
0000
0000
,
1010
0000
0000
0000
0000
0000
0001
0000
0000
1000
0000
0000
0011
0000
0000
0100
0000
0000
1001
0000
0000
0000
0000
0000
0110
0000
0000
0000
0000
0000
1001
0000
0010
0000
0100
0000
1000
0000
0000
0001
0000
0000
0100
0000
0000
0000
0000
0000
,
1010
0000
0000
0000
0000
0000
0001
0000
0000
0000
0000
0000
1000
0000
0000
0000
0000
0000
0001
0000
0010
0000
0100
0000
1001
0000
0000
0000
0000
0000
0100
0000
0010
1000
0100
0000
0011
0000
0000
0000
0000
0000
0100
0000
0000
0010
0000
0000
,
1101
0000
0000
1101
0000
0000
1101
0000
0000
0000
0001
0000
1100
0000
0010
0000
,
1001
0000
0000
0000
0000
0000
0010
0000
0000
0000
0000
0000
1000
0000
0001
0000
0010
0000
1100
0000
0000
0000
0000
0000
0011
0000
0000
0000
0000
0000
1000
0000
0000
0001
0000
0000
0010
0000
0000
0000
0000
0000
1100
0000
0000
0000
0000
0000
,
0011
0000
0000
0000
0000
0000
0100
0000
0000
1000
0000
0000
0011
0000
0000
0100
0000
0000
1010
0000
0000
0000
0000
0000
0101
0000
0000
0000
0000
0000
1001
0000
0100
0000
0010
0000
0001
0000
0000
1000
0000
0000
0100
0000
0000
0000
0000
0000
,
1010
0000
0000
0000
0000
0000
1000
0000
0001
0000
0010
0000
0100
0000
0000
0000
0000
0000
1010
0000
0000
0000
0000
0000
0101
0000
0000
0000
0000
0000
0010
0000
0001
1000
0010
0000
0100
0000
0000
0000
0000
0000
1001
0000
0000
0000
0000
0000
,
0110
0000
0000
0110
0001
0000
0110
0000
1001
0000
0010
1000
0011
0000
1100
0000
,
1001
0000
0000
0000
0000
0000
0010
0000
0000
0000
0000
0000
1000
0000
0001
0000
0010
0000
1100
0000
0000
0000
0000
0000
0011
0000
0000
0000
0000
0000
1000
0000
0000
0001
0000
0000
0010
0000
0000
0000
0000
0000
1100
0000
0000
0000
0000
0000
,
0011
0000
0000
0000
0000
0000
0100
0000
0000
1000
0000
0000
0011
0000
0000
0100
0000
0000
1010
0000
0000
0000
0000
0000
0101
0000
0000
0000
0000
0000
1001
0000
0100
0000
0010
0000
0001
0000
0000
0100
0000
0000
0010
0000
0000
0000
0000
0000
,
1001
0000
0000
0000
0000
0000
0100
0000
0000
0000
0000
0000
0010
0000
0000
0000
0000
0000
0001
0000
0010
0000
0100
0000
1001
0000
0000
0000
0000
0000
1000
0000
0010
0100
0001
0000
1010
0000
0000
0000
0000
0000
0101
0000
0000
0000
0000
0000
,
1011
0000
0000
0000
0000
0000
0000
0000
0000
1011
0000
0000
0000
0000
0000
0000
0000
0000
1011
0000
0000
0000
0000
0000
0000
0000
0000
0000
0000
0000
1000
0000
0100
0000
0010
0000
1001
0000
0000
0000
0000
0000
0000
0000
0000
0000
0000
0000
,
1110
0001
1100
0011
1100
0010
0101
1000
0110
0001
1100
0010
1001
0110
1001
0100
,
1001
0010
1100
0011
1100
0001
1010
0100
0011
0100
1010
0001
0110
0011
1100
0001
,
1010
0100
0011
1100
0011
0100
1010
0100
0011
1000
0101
0010
1001
0110
1001
0100
,
1010
0001
0110
1001
0110
1000
0101
0010
1100
0001
0110
1000
0011
0101
1010
0100
,
1011
0100
1010
0101
1010
0001
1100
0010
0101
1000
0011
0100
1010
0101
1010
0001
,
1100
0010
1001
0110
1001
0010
1100
0010
0101
1000
0011
0100
1010
0011
1100
0010
,
1001
0100
0011
1100
0011
0100
1010
0001
1100
0010
0101
0010
1100
0011
1100
0001
,
1100
0010
1001
0110
1001
0010
1100
0001
0110
1000
0101
0010
1001
0101
1010
0101
,
1010
0000
0001
1010
0100
0000
1001
0100
1010
0000
0100
1000
0010
0100
0011
1000
,
0110
0000
0001
1100
0010
0000
1100
0001
1010
0000
0110
0000
1001
0001
0010
1100
,
0011
0000
0100
1001
0010
0000
0101
0010
1100
0000
0010
0001
0100
0010
1001
0100
,
1010
0000
0001
1100
0010
0000
1001
0000
0110
0000
0011
0000
0111
0001
1100
0010
,
1101
0000
0010
1100
0001
0000
1100
0001
0110
0000
0001
0100
0010
0100
0011
1000
,
0110
0000
0001
1010
0100
0000
1010
0100
1001
0000
0101
1000
0011
0001
0110
1000
,
0101
0000
0010
1100
0001
0000
1010
0000
0101
0000
0011
0100
1000
0100
1010
0001
,
0110
0000
0000
1000
0000
0000
0000
0000
0000
1001
0000
0000
0100
0000
0000
0010
0000
0000
1100
0000
0001
0000
1000
0000
0011
0000
0000
0100
0000
0000
1000
0000
0000
0100
0000
0000
0011
0000
0000
1000
0000
0000
0101
0000
0000
0010
0000
0000
,
1101
0000
0000
0000
0000
0000
1000
0000
0000
0100
0000
0000
0011
0000
1000
0000
0001
0000
0100
0000
0000
0000
0000
0000
1001
0000
0000
0000
0000
0000
0010
0000
0000
0000
0000
0000
1100
0000
0000
0000
0000
0000
0011
0000
0000
0000
0000
0000
,
1001
0000
0000
0000
0000
0000
0010
0000
0000
0100
0000
0000
0011
0000
0000
0000
0000
0000
1100
0000
0000
0000
0000
0000
0101
0000
0000
0000
0000
0000
1001
0000
0010
0000
0100
0000
1001
0000
0000
0000
0000
0000
0101
0000
0000
0000
0000
0000
,
0110
0000
0000
0010
0001
0010
1100
0000
0000
0011
0000
0000
1100
0000
0000
0100
0010
0100
1001
0000
0000
1100
0000
0000
,
0011
0000
0100
0011
1000
0000
0011
0100
1011
0000
0101
0000
0111
0000
1010
0000
,
1101
0000
0000
0000
0000
0000
0010
0000
0000
0100
0000
0000
1001
0000
0010
0000
0100
0000
0001
0000
0000
0000
0000
0000
1100
0000
0000
0000
0000
0000
0010
0000
0000
0100
0000
0000
1001
0000
0000
0010
0000
0000
0101
0000
0000
0000
0000
0000
,
1010
0000
0000
0000
0000
0000
0100
0000
0000
1000
0000
0000
0011
0000
0000
0000
0000
0000
0101
0000
0000
0000
0000
0000
1100
0000
0000
0000
0000
0000
1001
0000
0010
0000
0100
0000
1001
0000
0000
0000
0000
0000
0101
0000
0000
0000
0000
0000
,
1010
0000
0000
0000
0000
0000
0001
0000
0000
0010
0000
0000
0101
0000
0000
0000
0000
0000
1100
0000
0001
0000
1000
0000
0011
0000
0000
0000
0000
0000
0100
0000
0010
0000
0100
0000
1001
0000
0000
0000
0000
0000
0100
0000
0000
1000
0000
0000
,
0111
0000
0000
0000
0000
0000
1000
0000
0000
0111
0000
0000
1000
0000
0000
0000
0000
0000
0111
0000
0000
0000
0000
0000
1000
0000
0000
0000
0000
0000
0001
0000
0100
0000
0010
0000
1001
0000
0000
0100
0000
0000
0010
0000
0000
0001
0000
0000
,
1110
0001
0100
1010
0101
0010
1001
0010
1100
0001
1100
0010
0101
1010
0100
0010
,
1100
0001
0000
0110
1001
0000
0011
0000
0100
0000
1010
0100
0011
1000
0010
0100
,
1001
0000
0000
0010
0000
0000
1000
0000
0100
0010
0001
0000
1100
0000
0000
0010
0000
0000
1001
0000
0100
0000
0010
0000
1001
0000
0000
0100
0000
0000
1010
0000
0100
0000
0010
0000
1001
0000
0100
0010
0001
0000
1000
0000
0010
0000
0100
0000
,
1001
0000
0100
0000
0010
0000
1000
0000
0100
1000
0010
0000
0101
0000
1000
0000
0010
0000
1100
0000
0001
0000
0010
0000
0101
0000
1000
0001
0010
0000
1100
0000
0001
0100
0010
0000
1001
0000
0000
0011
0000
0000
0100
0000
0000
1000
0000
0000
,
0011
0000
1000
0000
0100
0000
0010
0000
0000
1001
0000
0000
0100
0000
0000
0010
0000
0000
0000
0000
0000
0010
0000
0000
1100
0000
0000
0001
0000
0000
0100
0000
0000
0011
0000
0000
1000
0000
0000
0000
0000
0000
1000
0000
0010
0000
0100
0000
,
1001
0000
0010
0000
0100
0000
1000
0000
0100
1000
0010
0000
0001
0000
0000
1000
0000
0000
0000
0000
0000
1000
0000
0000
0010
0000
0000
0100
0000
0000
0001
0000
0000
0100
0000
0000
0010
0000
0000
0100
0000
0000
0001
0000
0010
0000
0100
0000
,
1011
0000
0000
0000
0000
0000
0000
0000
0000
1011
0000
0000
0000
0000
0000
0000
0000
0000
1000
0000
0100
0000
0010
0000
1101
0000
0000
0000
0000
0000
0000
0000
0000
1101
0000
0000
0000
0000
0000
0000
0000
0000
0001
0000
0010
0000
0100
0000
,
1011
0000
0000
0000
1011
0000
0000
0000
1011
0000
0000
0000
1110
0000
0000
0000
0000
0000
1101
0000
0000
0010
0000
0000
1101
0000
0000
0000
0000
0000
0000
0000
0100
0000
0010
0000
1001
0000
0000
0000
0000
0000
0000
0000
0000
0000
0000
0000
,
1011
0100
0011
1100
0001
0010
1100
0010
0001
0100
1010
0001
0100
1010
0101
0010
,
1001
0100
0011
1100
0001
0010
1100
0010
0001
0100
1010
0100
1001
1010
0101
0010
,
1001
0100
0011
1100
0010
0100
1001
0010
0100
0010
1001
0100
0010
1100
0011
0100
,
1001
0000
0000
0010
0000
0000
0101
0000
0000
1010
0000
0000
0100
0000
0000
0001
0000
0000
1010
0000
0000
0100
0000
0000
0010
0000
0000
0001
0000
0000
1100
0000
0000
0010
0000
0000
1100
0000
0000
1010
0000
0000
0101
0000
0010
0001
0100
0000
,
1011
0100
0011
1100
0010
0100
1001
0010
0100
0010
1001
0010
0100
1001
0110
0001
,
1100
0010
0101
1010
0001
0100
1001
0010
0100
0010
1001
0100
1001
1010
0101
0010
,
1100
0000
0010
0000
0101
0000
1010
0000
0001
0000
0100
0000
1010
0000
0001
0000
1100
0000
0010
0000
1100
0000
0001
0000
0110
0000
1001
0000
0110
0000
0101
0010
,
1101
0000
0000
0000
0000
0000
0000
0000
0111
0000
0000
1011
0000
0000
1101
0010
,
1101
0000
1000
0011
0100
0000
1001
0100
0011
0000
0100
0001
0010
0100
1010
0001
,
0110
0000
1000
0101
0010
0000
0101
1000
0011
0000
0110
0000
1001
0001
0100
1010
,
0101
0000
0010
1001
0100
0000
1010
0001
1100
0000
0010
1000
0001
0100
1010
0001
,
1100
0000
0001
1100
0010
0000
1001
0000
0110
0000
1010
0000
1110
0001
0101
0010
,
1101
0000
0010
1100
0011
0000
1100
0001
0110
0000
0001
1000
0100
0010
1001
0100
,
0011
0000
1000
0110
0001
0000
1100
0010
0101
0000
0110
1000
0011
0001
1010
0100
,
1001
0000
0100
1001
0010
0000
0101
0000
1010
0000
0101
0010
1000
0010
1100
0001
,
0110
0000
0000
1000
0000
0000
0000
0000
0000
1001
0000
0000
0100
0000
0000
0010
0000
0000
1100
0000
0001
0000
1000
0000
0011
0000
0000
0100
0000
0000
1000
0000
0000
0100
0000
0000
1001
0000
0000
0010
0000
0000
0101
0000
0000
1000
0000
0000
,
0111
0000
0100
0011
1000
0000
0101
0010
1001
0000
0100
0001
1000
0100
0011
1000
,
0110
0000
0001
1100
0010
0000
1001
0100
0011
0000
0110
0001
1100
1000
0001
0110
,
1001
0000
0010
1100
0001
0000
1010
0001
1100
0000
0010
0000
0001
0100
1010
0001
,
1100
0000
0000
0000
0000
0000
0001
0000
0000
1100
0000
0000
0011
0000
0000
0000
0000
0000
1001
0000
0100
0000
0010
0000
1001
0000
0000
0100
0000
0000
1010
0000
0000
0101
0000
0000
1010
0000
0000
0001
0000
0000
1100
0000
0000
0010
0000
0000
,
1001
0000
0001
1100
0011
0000
1100
0010
1001
0000
0100
0001
1000
0100
0011
1000
,
0110
0000
0001
1100
0010
0000
1001
0100
0011
0000
0110
0001
1100
1000
0011
0100
,
1001
0000
0010
1100
0001
0000
1010
0000
0101
0000
1010
0001
0010
0100
0011
1000
,
0110
0001
1000
0110
1001
0000
1010
0001
1100
0010
1001
0100
1011
0001
0010
0000
,
1101
0000
0010
0101
1010
0000
0101
0010
1100
0000
0110
0001
1100
0010
0100
0000
,
1001
0000
0100
1010
0101
0000
1010
0001
1100
0000
0011
1000
0101
0001
1100
0010
,
1101
0000
0010
1001
0110
0000
0101
1000
0111
0000
0101
1010
0101
1000
0010
0100
,
1011
0000
0100
1010
0101
0010
1100
0010
0110
1001
0000
0000
1011
0000
0000
0000
;
